Try Our New BETA Version
GO
(navigation image)
Home Audio Books & Poetry | Community Audio | Computers & Technology | Grateful Dead | Live Music Archive | Music, Arts & Culture | Netlabels | News & Public Affairs | Non-English Audio | Podcasts | Radio Programs | Spirituality & Religion
Search: Advanced Search
Anonymous User (login or join us)
Upload

Listen to audio

item image

Stream (help[help])

VBR M3U
MP3 via M3U

Play / Download (help[help])

VBR ZIP

Ogg Vorbis

Lossless zip


All Files: HTTPS Torrent (4/0)

Resources

Bookmark

DispatchDispatch Live at Avalon on 2000-11-09 (November 9, 2000)

something has gone horribly wrong 8-p
Prefer flash? · Embed · Questions/Feedback?


Collection: Dispatch
Band/Artist: Dispatch
Date: November 9, 2000 (check for other copies)
Venue: Avalon
Location: Boston, MA

Source: Neuman KM-184 > Graham Patten DMic-20 > DA-P1 (48.0)
Lineage: Tascam DA-20 MKII > Tascam HD-P2 > Sony Soundforge 8.0 (44.1) > CD Wave > Flac
Taped by: Brandon Smith
Transferred by: Patrick Price


Description

1. Even
2. What Do You Wanna Be?
3. Open Up
4. Land Down Under
5. Cover This
6. Bullet Holes
7. Wake Up
8. Prince of Spheres
9. Carry You
10. The General
11. Bats in the Belfry

Notes

length expanded size cdr WAVE problems fmt ratio filename
5:56.36 62883116 B --- -- ---xx flac 0.4724 dispatch2000-11-09s1t01.flac
7:32.41 79829276 B --- -- ---xx flac 0.5467 dispatch2000-11-09s1t02.flac
3:56.22 41682188 B --- -- ---xx flac 0.5465 dispatch2000-11-09s1t03.flac
2:26.41 25850876 B --- -- ---xx flac 0.5196 dispatch2000-11-09s1t04.flac
5:59.18 63369980 B --- -- ---xx flac 0.5277 dispatch2000-11-09s1t05.flac
6:40.09 70581212 B --- -- ---xx flac 0.5254 dispatch2000-11-09s1t06.flac
6:02.01 63859196 B --- -- ---xx flac 0.5362 dispatch2000-11-09s1t07.flac
5:00.51 53039996 B --- -- ---xx flac 0.4613 dispatch2000-11-09s1t08.flac
4:03.74 43039292 B --- -- ---xx flac 0.4751 dispatch2000-11-09s1t09.flac
5:04.24 53682092 B --- -- ---xx flac 0.5804 dispatch2000-11-09s1t10.flac
9:59.27 105727148 B --- -- ---xx flac 0.5149 dispatch2000-11-09s1t11.flac
62:41.44 663544372 B 0.5197 (11 files)

Individual Files

Whole Item FormatSize
[generated M3U] M3U Stream 
[generated VBR MP3 ZIP] VBR MP3 ZIP Stream 
Audio Files Flac VBR MP3 Ogg Vorbis PNG
Even 28.3 MB 
7.7 MB 
3.9 MB 
11.3 KB 
What Do You Wanna Be? 41.6 MB 
10.5 MB 
5.3 MB 
11.1 KB 
Open Up 21.7 MB 
5.5 MB 
2.7 MB 
11.7 KB 
Cover This 31.9 MB 
8.2 MB 
4.1 MB 
10.8 KB 
Bullet Holes 35.4 MB 
9.2 MB 
4.6 MB 
11.1 KB 
Wake Up 32.7 MB 
8.4 MB 
4.2 MB 
11.8 KB 
Prince of Spheres 23.3 MB 
6.5 MB 
3.2 MB 
10.9 KB 
Carry You 19.5 MB 
5.5 MB 
2.8 MB 
11.4 KB 
The General 29.7 MB 
7.1 MB 
3.5 MB 
10.7 KB 
Bats in the Belfry 51.9 MB 
13.0 MB 
6.5 MB 
9.9 KB 
Information FormatSize
dispatch2000-11-09.ffp Flac FingerPrint 620.0 B 
dispatch2000-11-09.md5 Checksums 630.0 B 
dispatch2000-11-09.ffp.ffp Flac FingerPrint 693.0 B 
dispatch2000-11-09s1t04.flac Flac FingerPrint 12.8 MB 
dispatch2000-11-09_files.xml Metadata [file] 
dispatch2000-11-09_meta.xml Metadata 2.9 KB 
Other Files Text Archive BitTorrent
Info 2.4 KB 
Shntool 1.2 KB 
dispatch2000-11-09_archive.torrent 27.1 KB 

Be the first to write a review
Downloaded 183 times
Reviews


Terms of Use (31 Dec 2014)